Микс
KARANTIN MIX

0
Голосов пока нет
The SoundCloud content at https://soundcloud.com/utkamusic/karantin-mix is not available, or it is set to private.

TRACK 01 AUDIO
        TITLE "Insan3Lik3 - Tokyo Express "
        INDEX 01 00:00:00
    TRACK 02 AUDIO
        TITLE "Kaskade x BROHUG x Mr. Tape vs. AC Slater x Phlegmatic Dogs – Fun (Kaskade Edit)"
        INDEX 01 00:01:13
    TRACK 03 AUDIO
        TITLE "MØ & Diplo  – Sun In Our Eyes (Don Diablo Remix)"
        INDEX 01 00:02:45
    TRACK 04 AUDIO
        TITLE "Ephixa & Bossfight - Subside"
        INDEX 01 00:03:41
    TRACK 05 AUDIO
        TITLE "Maximono & Marten Hørger - Loco "
        INDEX 01 00:04:36
    TRACK 06 AUDIO
        TITLE "Virtual Riot - Remedy (feat. Leah Culver)"
        INDEX 01 00:05:59
    TRACK 07 AUDIO
        TITLE "TYNAN & Kompany – Extraterrestrial"
        INDEX 01 00:07:30
    TRACK 08 AUDIO
        TITLE "Tweekacore & Darren Styles - Crash & Burn (feat. Giin)"
        INDEX 01 00:08:40
    TRACK 09 AUDIO
        TITLE "Rickyxsan & Oski – Back"
        INDEX 01 00:10:23
    TRACK 10 AUDIO
        TITLE "Infected Mushroom & Bliss - Bliss on Mushrooms (feat. MIYAVI)"
        INDEX 01 00:11:51
    TRACK 11 AUDIO
        TITLE "Insomna & Antent – With the Flow"
        INDEX 01 00:13:21

Материалы по теме

Комментарии

DROP THE BASS Shop

Комментарии

Войдите или зарегистрируйтесь, чтобы оставить комментарий к этому материалу.